Blade Runner 2049 (2017) Uncut 720p BluRay x264 Esub [Dual Audio]...

Size 1.4 GB   107 seeders     Added 2 weeks ago

Quote:Blade Runner 2049 (2017) Uncut 720p BluRay x264 Esub [Dual Audio] [Hindi 2.0(224kbps) + English] 1.45GB [CraZzyBoY]
   Visit & Support www.MoviezAddiction.pro     Blade Runner 2049 (2017) Uncut 720p BluRay x264 Esub [Dual Audio] [Hindi 2.0(224kbps) + English] 1.45GB [CraZzyBoY]
Like Us On Facebook  Visit & Support www.MoviezAddiction.pro  General  Format : Matroska Format version : Version 4 File size : 1.45 GiB Duration : 2 h 43 min Overall bit rate : 1 267 kb/s Movie name : [www.MoviezAddiction.pro] Encoded date : UTC 2020-01-14 12:30:27 Writing application : mkvmerge v41.0.0 ('Smarra') 64-bit Writing library : libebml v1.3.9 + libmatroska v1.5.2 Video ID : 1 Format : AVC Format/Info : Advanced Video Codec Format profile : [email protected] Format settings : CABAC / 4 Ref Frames Format settings, CABAC : Yes Format settings, Reference frames : 4 frames Codec ID : V_MPEG4/ISO/AVC Duration : 2 h 43 min Bit rate : 900 kb/s Width : 1 280 pixels Height : 534 pixels Display aspect ratio : 2.40:1 Original display aspect ratio : 2.40:1 Frame rate mode : Constant Frame rate : 23.976 (24000/1001) FPS Color space : YUV Chroma subsampling : 4:2:0 Bit depth : 8 bits Scan type : Progressive Bits/(Pixel*Frame) : 0.055 Stream size : 1.03 GiB (71%) Title : [www.MoviezAddiction.pro] Writing library : x264 core 152 Encoding settings : cabac=1 / ref=4 / deblock=1:-1:-1 / analyse=0x3:0x133 / me=umh / subme=9 / psy=1 / psy_rd=1.00:0.15 / mixed_ref=1 / me_range=24 / chroma_me=1 / trellis=2 / 8x8dct=1 / cqm=0 / deadzone=21,11 / fast_pskip=0 / chroma_qp_offset=-3 / threads=12 / lookahead_threads=1 / sliced_threads=0 / nr=0 / decimate=1 / interlaced=0 / bluray_compat=0 / constrained_intra=0 / bframes=3 / b_pyramid=2 / b_adapt=2 / b_bias=0 / direct=3 / weightb=1 / open_gop=0 / weightp=2 / keyint=250 / keyint_min=23 / scenecut=40 / intra_refresh=0 / rc_lookahead=60 / rc=2pass / mbtree=1 / bitrate=900 / ratetol=1.0 / qcomp=0.60 / qpmin=0 / qpmax=69 / qpstep=4 / cplxblur=20.0 / qblur=0.5 / vbv_maxrate=31250 / vbv_bufsize=31250 / nal_hrd=none / filler=0 / ip_ratio=1.40 / aq=1:1.00 Default : Yes Forced : No Audio #1 ID : 2 Format : AAC LC Format/Info : Advanced Audio Codec Low Complexity Codec ID : A_AAC-2 Duration : 2 h 43 min Bit rate : 140 kb/s Channel(s) : 2 channels Channel layout : L R Sampling rate : 48.0 kHz Frame rate : 46.875 FPS (1024 SPF) Compression mode : Lossy Delay relative to video : -43 ms Stream size : 164 MiB (11%) Title : [www.MoviezAddiction.pro] Language : English Default : No Forced : No Audio #2 ID : 3 Format : AC-3 Format/Info : Audio Coding 3 Commercial name : Dolby Digital Codec ID : A_AC3 Duration : 2 h 43 min Bit rate mode : Constant Bit rate : 224 kb/s Channel(s) : 2 channels Channel layout : L R Sampling rate : 48.0 kHz Frame rate : 31.250 FPS (1536 SPF) Compression mode : Lossy Delay relative to video : -43 ms Stream size : 262 MiB (18%) Title : [www.MoviezAddiction.pro] Language : Hindi Service kind : Complete Main Default : Yes Forced : No Text ID : 4 Format : UTF-8 Codec ID : S_TEXT/UTF8 Codec ID/Info : UTF-8 Plain Text Duration : 2 h 32 min Bit rate : 29 b/s Count of elements : 1355 Stream size : 32.7 KiB (0%) Title : [www.MoviezAddiction.pro] Default : Yes Forced : No  Thirty years after the events of the first film, a new blade runner, LAPD Officer K (Ryan Gosling), unearths a long-buried secret that has the potential to plunge what's left of society into chaos. K's discovery leads him on a quest to find Rick Deckard (Harrison Ford), a former LAPD blade runner who has been missing for 30 years.
      

udp://tracker.coppersurfer.tk:6969/announce
udp://tracker.leechers-paradise.org:6969/announce
udp://tracker.opentrackr.org:1337/announce
udp://p4p.arenabg.com:1337/announce
udp://tracker.pomf.se:80/announce
udp://tracker.openbittorrent.com:80/announce
udp://9.rarbg.to:2710/announce
udp://9.rarbg.me:2710/announce
udp://exodus.desync.com:6969/announce
udp://tracker.tiny-vps.com:6969/announce
udp://tracker.zer0day.to:1337/announce
udp://tracker.leechers-paradise.org:6969/announce
udp://coppersurfer.tk:6969/announce

4000 symbols left
Hash f04cade75a10a0d1088281b8f0db4952e776b636